<?xml version="1.0" standalone="no"?>
<!DOCTYPE svg PUBLIC "-//W3C//DTD SVG 1.1//EN" "http://www.w3.org/Graphics/SVG/1.1/DTD/svg11.dtd" >
<svg xmlns="http://www.w3.org/2000/svg">
<metadata></metadata>
<defs>
<font id="thaisans_neueregular" horiz-adv-x="0" >
<font-face units-per-em="1000" ascent="753" descent="-247" />
<missing-glyph horiz-adv-x="322" />
<glyph unicode="&#x3b;&#x3b;arm&#x3b;&#x3b;" horiz-adv-x="1044" d="M517 450l-70 -190h-40l228 620h172l200 -620h-160l-61 190h-269zM207 -238h-26l-32 160l18 12q-1 -1 -6 -1q-3 -1 -14 -1q-24 0 -47 17t-23 51q0 26 18 48t52 22q30 0 50 -20t20 -50q0 -37 -27 -56l22 -102l55 110h20l55 -110l35 208h50l-16 -83l11 20l65 14 q0 103 23.5 146t76.5 43q29 0 44.5 -19.5t15.5 -50.5h-20q0 16 -8 28t-22 12q-37 0 -53.5 -36t-16.5 -113l73 18l9 -36l-82 -21v-40q0 -45 -1.5 -76t-5 -64.5t-11 -55t-19.5 -39.5t-30 -26.5t-43 -8.5q-31 0 -50.5 15.5t-19.5 44.5h20q0 -14 12 -22t28 -8q15 0 26.5 4 t19.5 14t14 20.5t9.5 29.5t6 34t3.5 42t1 45v51v30l-80 -20l-34 -180h-26l-70 150zM197 620h-160v40h160v80q-23 0 -41.5 24t-18.5 56q0 34 24.5 57t55.5 23q38 0 59 -21t21 -59q0 -29 -16 -53.5t-44 -26.5v-80h160v-40h-160v-120l107 -240h-40l-87 200l-87 -200h-40 l107 240v120zM777 -98q0 75 34.5 132t85.5 57q53 0 81.5 -36.5t28.5 -102.5q0 -96 -34 -143t-96 -47q-42 0 -71 35t-29 105zM769 500l-109 340l-123 -340h232zM817 -128q0 -26 16 -48t44 -22q48 0 70 65q8 27 10 65zM957 -18q-1 17 -8 34q-16 34 -52 34q-44 0 -66 -64 q-9 -25 -14 -64zM177 820q0 -40 40 -40t40 40t-40 40t-40 -40zM785 838l-56 -92l11 -36l56 94zM909 452l-6 21l-57 -93l6 -19zM855 619l-7 24l-56 -93l7 -24zM736 20h-20l20 100h30zM666 20l20 100h30l-30 -100h-20zM117 0q0 -12 8 -20t22 -8q30 0 30 28q0 30 -30 30 q-14 0 -22 -8.5t-8 -21.5zM820 729l-56 -93l6 -20l56 93zM868 577l-5 20l-57 -93l7 -20zM722 765l52 85h-25l-35 -57zM812 753l-6 20l-56 -93l6 -20zM895 496l-6 17l-56 -93l6 -16zM841 662l-7 21l-55 -93l6 -20zM915 433l-56 -93l7 -23l56 94zM882 534l-5 19l-57 -94l6 -16 zM872 300l3 -10h13l47 79l-7 24zM707 811l23 39h-36zM948 331l-7 20l-37 -61h20zM960 290l-7 22l-13 -22h20z" />
<glyph unicode=" "  horiz-adv-x="322" />
<glyph unicode="&#x09;" horiz-adv-x="322" />
<glyph unicode="&#xa0;" horiz-adv-x="322" />
<glyph unicode="!" horiz-adv-x="134" d="M97 120h-60v400h60v-400zM97 0h-60v60h60v-60z" />
<glyph unicode="&#x22;" horiz-adv-x="244" d="M37 360v160h60v-160h-60zM147 360v160h60v-160h-60z" />
<glyph unicode="#" horiz-adv-x="546" d="M154 301h-76l12 49h77l38 140h58l-38 -140h140l38 140h58l-38 -140h86l-13 -49h-86l-28 -105h86l-14 -49h-85l-39 -147h-58l39 147h-140l-39 -147h-58l39 147h-76l13 49h76zM352 301h-140l-28 -105h140z" />
<glyph unicode="$" horiz-adv-x="394" d="M337 420q-17 8 -36 15q-51 15 -104 15q-37 0 -68.5 -20t-31.5 -50q0 -31 27 -50.5t65 -31.5t76 -27.5t65 -48t27 -82.5q0 -131 -127 -145v-77h-57v74q-54 1 -102 20q-21 8 -34 18v50q21 -12 44 -20q49 -20 102 -20q55 0 84.5 26.5t29.5 73.5q0 38 -27 61t-65 35t-76 25.5 t-65 42.5t-27 76q0 50 39.5 80.5t96.5 37.5v76h57v-76q47 -4 80 -16q16 -4 27 -12v-50z" />
<glyph unicode="%" horiz-adv-x="573" d="M504 602l-336 -602h-63l336 602h63zM172 420q0 93 -39 93q-38 0 -38 -94q0 -52 10 -70t28 -18q39 0 39 89zM130 282q-42 0 -67.5 35t-25.5 100q0 69 27 107t71 38q42 0 67.5 -36t25.5 -103t-27.5 -104t-70.5 -37zM480 124q0 93 -39 93q-38 0 -38 -94q0 -52 10 -70t28 -18 q39 0 39 89zM438 -12q-41 0 -67 34.5t-26 98.5q0 69 27 107t71 38q42 0 67.5 -36t25.5 -103t-27.5 -103t-70.5 -36z" />
<glyph unicode="&#x26;" horiz-adv-x="554" d="M517 0q-85 0 -138 60q-71 -68 -178 -68q-164 0 -164 135q0 104 112 156q-62 41 -62 105q0 52 38 82t97 30q51 0 88 -28.5t37 -73.5q0 -44 -24.5 -71.5t-76.5 -48.5q34 -18 61.5 -43.5t41 -42.5t34.5 -47q31 43 47.5 95.5t16.5 92.5v17h60q-3 -59 -27.5 -125.5 t-64.5 -122.5q42 -52 102 -52v-50zM201 40q88 0 145 59q-5 7 -19 27.5t-20.5 29.5t-21 26t-26.5 27t-29.5 21t-37.5 18q-52 -21 -73.5 -45.5t-21.5 -75.5q0 -87 104 -87zM287 398q0 24 -21.5 37t-43.5 13q-35 0 -55 -17.5t-20 -42.5q0 -56 54 -86q86 33 86 96z" />
<glyph unicode="'" horiz-adv-x="134" d="M37 360v160h60v-160h-60z" />
<glyph unicode="(" horiz-adv-x="204" d="M142 -139q-120 134 -120 326q0 196 120 337h55q-119 -145 -119 -337q0 -186 119 -326h-55z" />
<glyph unicode=")" horiz-adv-x="204" d="M7 -139q119 140 119 326q0 192 -119 337h55q120 -141 120 -337q0 -192 -120 -326h-55z" />
<glyph unicode="*" horiz-adv-x="289" d="M70 340l-33 45l81 42l-81 42l33 45l57 -54l-11 79h56l-12 -80l59 55l33 -45l-82 -42l82 -42l-33 -45l-59 55l12 -80h-56l11 79z" />
<glyph unicode="+" horiz-adv-x="374" d="M162 230v132h50v-132h125v-50h-125v-120h-50v120h-125v50h125z" />
<glyph unicode="," horiz-adv-x="134" d="M37 60h60v-60q0 -35 -35 -76q-19 -21 -35 -32h-48q11 12 29 36q29 41 29 72v60z" />
<glyph unicode="-" horiz-adv-x="269" d="M232 190h-195v50h195v-50z" />
<glyph unicode="." horiz-adv-x="134" d="M97 0h-60v60h60v-60z" />
<glyph unicode="/" horiz-adv-x="231" d="M224 602l-161 -602h-56l161 602h56z" />
<glyph unicode="0" horiz-adv-x="414" d="M332 241q0 101 -36 155t-93 54q-54 0 -87.5 -54t-33.5 -158q0 -98 33.5 -148t87.5 -50q57 0 93 51.5t36 149.5zM392 246q0 -120 -56 -187t-138 -67q-80 0 -128 62.5t-48 180.5q0 127 51 196t134 69q81 0 133 -65t52 -189z" />
<glyph unicode="1" horiz-adv-x="229" d="M192 490v-490h-60v410q-61 -40 -110 -50v50q37 14 78 49q20 17 33 31h59z" />
<glyph unicode="2" horiz-adv-x="339" d="M252 364q0 86 -85 86q-82 0 -125 -43v50q42 43 125 43q65 0 105 -34.5t40 -95.5q0 -41 -22.5 -79.5t-55 -69t-65.5 -58.5t-58 -57.5t-28 -55.5h249v-50h-310v46q0 32 23.5 66t57.5 63.5l68 59t57.5 63.5t23.5 66z" />
<glyph unicode="3" horiz-adv-x="349" d="M327 134q0 -67 -49 -104.5t-127 -37.5q-65 0 -114 28v53q39 -33 114 -33q50 0 83 23t33 66q0 51 -41 75t-139 24v47q44 0 80 11q80 22 80 81q0 83 -79 83q-71 0 -111 -30v50q46 30 111 30q57 0 98 -34t41 -83q0 -97 -100 -128q49 -6 84.5 -40t35.5 -81z" />
<glyph unicode="4" horiz-adv-x="360" d="M232 401l-160 -231h160v231zM7 170l225 320h60v-320h61v-51h-61v-119h-60v119h-225v51z" />
<glyph unicode="5" horiz-adv-x="329" d="M307 146q0 -74 -46.5 -114t-128.5 -40q-61 0 -95 18v52q8 -6 26 -11q27 -11 69 -11q115 0 115 102q0 50 -31 79t-83 29q-44 0 -71 -5q-18 -4 -25 -5v250h236v-50h-176v-145h36q83 0 128.5 -40.5t45.5 -108.5z" />
<glyph unicode="6" horiz-adv-x="363" d="M86 162q0 -57 25 -89.5t71 -32.5q40 0 70 33.5t30 78.5q0 53 -26 80t-74 27q-45 0 -70.5 -32.5t-25.5 -64.5zM22 216q0 138 54 211t149 73q65 0 87 -10v-50q-4 1 -24 5q-25 5 -63 5q-67 0 -105 -51t-38 -141q29 50 107 50q63 0 107.5 -44t44.5 -112q0 -70 -45 -115 t-114 -45q-73 0 -116.5 59.5t-43.5 164.5z" />
<glyph unicode="7" horiz-adv-x="334" d="M7 490h320v-30l-175 -460h-60l165 440h-250v50z" />
<glyph unicode="8" horiz-adv-x="354" d="M102 368q0 -34 20 -56t55 -22q32 0 54 23t22 55q0 35 -22 58.5t-54 23.5q-37 0 -56 -22.5t-19 -59.5zM177 240q-42 0 -68.5 -27.5t-26.5 -72.5q0 -46 25 -73t70 -27q44 0 69.5 27t25.5 73q0 40 -26 70t-69 30zM42 374q0 54 38 90t97 36q56 0 95.5 -37.5t39.5 -88.5 q0 -73 -65 -109q41 -20 63 -56t22 -79q0 -66 -42.5 -102t-112.5 -36q-73 0 -114 35.5t-41 102.5q0 93 86 135q-66 37 -66 109z" />
<glyph unicode="9" horiz-adv-x="363" d="M277 328q0 57 -25 89.5t-71 32.5q-40 0 -70 -33.5t-30 -78.5q0 -53 26 -80t74 -27q45 0 70.5 32.5t25.5 64.5zM341 274q0 -138 -53.5 -210t-149.5 -72q-63 0 -87 8v50q13 -4 24 -5q28 -5 63 -5q67 0 105 51t38 141q-29 -50 -107 -50q-63 0 -107.5 44t-44.5 112 q0 70 45 116t114 46q73 0 116.5 -60.5t43.5 -165.5z" />
<glyph unicode=":" horiz-adv-x="134" d="M97 0h-60v60h60v-60zM97 290h-60v60h60v-60z" />
<glyph unicode=";" horiz-adv-x="134" d="M37 60h60v-60q0 -35 -35 -76q-19 -21 -35 -32h-48q11 12 29 36q29 41 29 72v60zM97 290h-60v60h60v-60z" />
<glyph unicode="&#x3c;" horiz-adv-x="361" d="M102 165l252 -123v-54l-332 164v26l332 186v-56z" />
<glyph unicode="=" horiz-adv-x="374" d="M337 230h-300v50h300v-50zM337 120h-300v50h300v-50z" />
<glyph unicode="&#x3e;" horiz-adv-x="361" d="M339 152l-332 -164v54l252 123l-252 143v56l332 -186v-26z" />
<glyph unicode="?" horiz-adv-x="314" d="M157 120h-60v96q0 26 18.5 48t41.5 36t41.5 36t18.5 48q0 33 -19.5 49.5t-49.5 16.5q-47 0 -82 -20q-16 -9 -29 -20v50q10 12 25 20q35 20 86 20q53 0 91 -29t38 -81q0 -29 -12.5 -52t-30 -38t-35 -27.5t-30 -27t-12.5 -29.5v-96zM157 0h-60v60h60v-60z" />
<glyph unicode="@" horiz-adv-x="654" d="M326 290q-42 0 -70.5 -27.5t-28.5 -78.5q0 -42 18 -63t43 -21q88 0 88 138q0 52 -50 52zM389 127q-18 -41 -41 -59t-60 -18q-50 0 -85.5 34t-35.5 100q0 65 48.5 110.5t110.5 45.5q54 0 73 -40l8 40h56l-28 -164q0 -23 4 -38q8 -38 29 -38q40 0 64.5 41.5t24.5 84.5 q0 41 -24 84.5t-76.5 76.5t-119.5 33q-102 0 -171 -75.5t-69 -157.5q0 -86 62 -150.5t167 -64.5q69 0 144 28v-51q-81 -27 -144 -27q-121 0 -205 75t-84 190q0 117 89.5 200t210.5 83q117 0 198.5 -70t81.5 -174q0 -77 -46 -126.5t-103 -49.5q-41 0 -58.5 17.5t-20.5 59.5z " />
<glyph unicode="A" horiz-adv-x="434" d="M187 490h60l180 -490h-60l-48 130h-206l-49 -130h-57zM217 425l-87 -245h172z" />
<glyph unicode="B" horiz-adv-x="384" d="M97 235v-185h76q50 0 82 25.5t32 64.5q0 45 -32.5 70t-92.5 25h-65zM97 440v-155h59q47 0 74 20.5t27 59.5q0 75 -95 75h-65zM37 0v490h140q65 0 102.5 -32t37.5 -83q0 -40 -23.5 -72t-62.5 -43q51 -9 83.5 -40.5t32.5 -79.5q0 -61 -47.5 -100.5t-120.5 -39.5h-142z" />
<glyph unicode="C" horiz-adv-x="409" d="M402 20q-52 -28 -141 -28q-108 0 -173.5 67t-65.5 181q0 119 68 189.5t178 70.5q91 0 134 -20l-20 -50q-41 20 -114 20q-84 0 -135 -57.5t-51 -152.5q0 -93 50.5 -146.5t135.5 -53.5q56 0 114 30z" />
<glyph unicode="D" horiz-adv-x="459" d="M97 440v-390h71q96 0 152.5 53.5t56.5 146.5q0 190 -206 190h-74zM37 0v490h137q263 0 263 -240q0 -112 -74 -181t-195 -69h-131z" />
<glyph unicode="E" horiz-adv-x="334" d="M97 50h200v-50h-260v490h260v-50h-200v-170h180v-50h-180v-170z" />
<glyph unicode="F" horiz-adv-x="304" d="M277 220h-180v-220h-60v490h260v-50h-200v-170h180v-50z" />
<glyph unicode="G" horiz-adv-x="469" d="M262 250h170v-224q-64 -34 -168 -34q-108 0 -175 65.5t-67 177.5q0 116 74.5 190.5t187.5 74.5q57 0 106 -15q16 -6 32 -15v-50q-14 8 -33 15q-49 15 -111 15q-86 0 -141 -60.5t-55 -154.5t50.5 -144.5t138.5 -50.5q58 0 101 22v138h-110v50z" />
<glyph unicode="H" horiz-adv-x="444" d="M347 490h60v-490h-60v230h-250v-230h-60v490h60v-210h250v210z" />
<glyph unicode="I" horiz-adv-x="134" d="M97 0h-60v490h60v-490z" />
<glyph unicode="J" horiz-adv-x="254" d="M157 490h60v-318q0 -86 -37.5 -133t-102.5 -47q-34 0 -54 5q-9 3 -16 6l20 45q1 0 6 -1.5t8 -2.5q12 -4 36 -4q80 0 80 132v318z" />
<glyph unicode="K" horiz-adv-x="389" d="M232 323l150 -323h-62l-127 274l-96 -121v-153h-60v490h60v-248l199 248h70z" />
<glyph unicode="L" horiz-adv-x="304" d="M97 50h200v-50h-260v490h60v-440z" />
<glyph unicode="M" horiz-adv-x="584" d="M467 490h80v-490h-60v405l-185 -405h-30l-175 403v-403h-60v490h80l170 -400z" />
<glyph unicode="N" horiz-adv-x="474" d="M377 490h60v-490h-75l-265 407v-407h-60v490h75l265 -412v412z" />
<glyph unicode="O" horiz-adv-x="514" d="M251 -8q-105 0 -167 66t-62 180q0 122 63.5 192t175.5 70q104 0 167.5 -69t63.5 -182q0 -122 -64.5 -189.5t-176.5 -67.5zM251 40q85 0 133 55t48 154q0 90 -47.5 145.5t-123.5 55.5q-84 0 -131.5 -56.5t-47.5 -155.5q0 -91 45.5 -144.5t123.5 -53.5z" />
<glyph unicode="P" horiz-adv-x="359" d="M97 440v-210h62q58 0 88 29.5t30 79.5q0 51 -23.5 76t-80.5 25h-76zM97 180v-180h-60v490h136q78 0 121 -39t43 -111q0 -73 -47.5 -116.5t-130.5 -43.5h-62z" />
<glyph unicode="Q" horiz-adv-x="514" d="M251 -8q-105 0 -167 66t-62 180q0 122 63.5 192t175.5 70q104 0 167.5 -69t63.5 -182q0 -165 -115 -229q20 -9 34 -17.5t26 -27.5t12 -43h-56q0 24 -23.5 41.5t-50.5 26.5q-37 -8 -68 -8zM251 40q85 0 133 55t48 154q0 90 -47.5 145.5t-123.5 55.5q-84 0 -131.5 -56.5 t-47.5 -155.5q0 -91 45.5 -144.5t123.5 -53.5z" />
<glyph unicode="R" horiz-adv-x="399" d="M97 440v-180h78q46 0 74 24.5t28 71.5q0 39 -27 61.5t-75 22.5h-78zM392 0h-68l-85 136q-24 39 -44.5 56.5t-50.5 17.5h-47v-210h-60v490h150q64 0 107 -35.5t43 -98.5q0 -95 -113 -121q9 -3 17 -9t16.5 -17.5t13.5 -18.5t15 -23t13 -21z" />
<glyph unicode="S" horiz-adv-x="394" d="M337 420q-17 8 -36 15q-51 15 -104 15q-37 0 -68.5 -20t-31.5 -50q0 -31 27 -50.5t65 -31.5t76 -27.5t65 -48t27 -82.5q0 -148 -174 -148q-68 0 -109 19q-19 6 -37 19v50q21 -12 44 -20q49 -20 102 -20q55 0 84.5 26.5t29.5 73.5q0 38 -27 61t-65 35t-76 25.5t-65 42.5 t-27 76q0 55 48.5 87.5t111.5 32.5q57 0 106 -15q23 -9 34 -15v-50z" />
<glyph unicode="T" horiz-adv-x="349" d="M7 490h335v-50h-135v-440h-60v440h-140v50z" />
<glyph unicode="U" horiz-adv-x="444" d="M347 490h60v-297q0 -201 -190 -201q-91 0 -135.5 47.5t-44.5 146.5v304h60v-300q0 -77 28 -113.5t92 -36.5q130 0 130 144v306z" />
<glyph unicode="V" horiz-adv-x="434" d="M67 490l150 -420l150 420h60l-180 -490h-60l-180 490h60z" />
<glyph unicode="W" horiz-adv-x="644" d="M452 70l125 420h60l-150 -490h-70l-90 390l-110 -390h-70l-140 490h60l115 -420l125 420h40z" />
<glyph unicode="X" horiz-adv-x="404" d="M397 490l-160 -245l160 -245h-70l-125 195l-125 -195h-70l160 245l-150 245h70l115 -195l125 195h70z" />
<glyph unicode="Y" horiz-adv-x="384" d="M187 239l130 251h60l-160 -311v-179h-60v176l-150 314h60z" />
<glyph unicode="Z" horiz-adv-x="384" d="M27 490h350v-15l-280 -425h269l1 -50h-360v15l280 425h-260v50z" />
<glyph unicode="[" horiz-adv-x="196" d="M189 -139h-152v664h152v-49h-98v-566h98v-49z" />
<glyph unicode="\" horiz-adv-x="231" d="M63 602l161 -602h-56l-161 602h56z" />
<glyph unicode="]" horiz-adv-x="196" d="M7 525h152v-664h-152v49h98v566h-98v49z" />
<glyph unicode="^" horiz-adv-x="452" d="M216 445l-123 -252h-56l166 332h26l186 -332h-56z" />
<glyph unicode="_" horiz-adv-x="374" d="M337 -48h-300v48h300v-48z" />
<glyph unicode="`" horiz-adv-x="212" d="M37 551h60l78 -111h-50z" />
<glyph unicode="a" horiz-adv-x="354" d="M317 0h-55v40q-43 -48 -105 -48q-56 0 -89 26.5t-31 76.5q1 41 24.5 66t49.5 32t56 7q48 0 74 7q17 6 21 8q0 105 -93 105q-48 0 -87 -33q-15 -12 -25 -32l-20 45q11 20 28 32q41 33 104 33q60 0 104 -33t44 -102v-230zM167 35q28 0 55 15.5t40 34.5v85q-4 -2 -13.5 -4.5 t-14.5 -3.5q-28 -7 -57 -7q-33 0 -59 -15.5t-26 -44.5q0 -60 75 -60z" />
<glyph unicode="b" horiz-adv-x="404" d="M92 95q16 -16 34 -28q38 -27 86 -27q44 0 79.5 36.5t35.5 109.5q0 59 -36.5 96.5t-78.5 37.5q-47 0 -86 -28q-16 -11 -34 -27v-170zM92 0h-55v520h55v-210q12 15 30 27q37 28 90 28q62 0 116 -47t54 -132q0 -94 -51 -141.5t-119 -47.5q-50 0 -90 26q-18 11 -30 27v-50z " />
<glyph unicode="c" horiz-adv-x="304" d="M297 20q-12 -8 -27 -12q-27 -11 -70 -11q-80 0 -129 46t-49 127q0 87 51 141t132 54q33 0 65 -13q14 -4 27 -12l-20 -45q-8 7 -20 12q-24 13 -52 13q-53 0 -90.5 -41.5t-37.5 -108.5q0 -65 36.5 -97.5t91.5 -32.5q30 0 52 12q9 4 20 13z" />
<glyph unicode="d" horiz-adv-x="404" d="M312 265q-18 16 -34 27q-39 28 -86 28q-42 0 -78.5 -37.5t-36.5 -96.5q0 -73 35.5 -109.5t79.5 -36.5q48 0 86 27q18 12 34 28v170zM367 0h-55v50q-12 -16 -30 -27q-40 -26 -90 -26q-68 0 -119 47.5t-51 141.5q0 85 54 132t116 47q53 0 90 -28q18 -12 30 -27v210h55v-520 z" />
<glyph unicode="e" horiz-adv-x="353" d="M274 210q-2 51 -26 80.5t-66 29.5q-41 0 -69.5 -30.5t-35.5 -79.5h197zM331 165h-254q0 -61 32.5 -93t83.5 -32q46 0 74 17q13 8 20 18l20 -45q-10 -8 -30 -17q-40 -16 -84 -16q-79 0 -125 43.5t-46 133.5q0 82 45.5 136.5t114.5 54.5q70 0 109.5 -45.5t39.5 -128.5v-26z " />
<glyph unicode="f" horiz-adv-x="234" d="M72 305h-65v45h65v54q0 126 98 126q22 0 46 -3q2 0 5.5 -0.5t5.5 -1.5v-45q-2 0 -5 1t-4 1q-21 3 -29 3q-32 0 -47 -19t-15 -62v-54h100v-45h-100v-305h-55v305z" />
<glyph unicode="g" horiz-adv-x="404" d="M312 360h55v-349q0 -96 -45.5 -140t-144.5 -44q-52 0 -90 17q-18 8 -30 18l20 45q11 -11 24 -18q30 -17 76 -17q68 0 101.5 30.5t33.5 98.5v49q-12 -16 -30 -27q-40 -26 -90 -26q-62 0 -116 46t-54 131q0 94 51 142.5t119 48.5q53 0 90 -28q18 -12 30 -27v50zM312 265 q-18 16 -34 27q-39 28 -86 28q-44 0 -79.5 -36.5t-35.5 -109.5q0 -59 36.5 -96.5t78.5 -37.5q48 0 86 27q18 12 34 28v170z" />
<glyph unicode="h" horiz-adv-x="374" d="M337 0h-55v236q0 35 -25.5 57t-64.5 22q-44 0 -76 -30q-14 -13 -24 -30v-255h-55v520h55v-220q10 20 25 32q39 33 85 33q69 0 102 -36t33 -96v-233z" />
<glyph unicode="i" horiz-adv-x="129" d="M92 0h-55v360h55v-360zM92 416h-55v54h55v-54z" />
<glyph unicode="j" horiz-adv-x="129" d="M-81 -113q2 -2 6 -4.5t6 -3.5q11 -7 26 -7q80 0 80 124v364h55v-354q0 -85 -35.5 -132t-99.5 -47q-28 0 -44 7l-7 3.5t-7 4.5zM92 416h-55v54h55v-54z" />
<glyph unicode="k" horiz-adv-x="329" d="M92 159l153 191h61l-93 -116l109 -234h-52l-89 194l-89 -112v-82h-55v520h55v-361z" />
<glyph unicode="l" horiz-adv-x="129" d="M92 0h-55v520h55v-520z" />
<glyph unicode="m" horiz-adv-x="619" d="M582 0h-55v236q0 35 -25.5 57t-64.5 22q-44 0 -76 -30q-13 -13 -24 -30v-255h-55v236q0 35 -25.5 57t-64.5 22q-44 0 -76 -30q-14 -13 -24 -30v-255h-55v360h55v-60q0 4 10.5 18.5t38 30.5t61.5 16q91 0 123 -69q47 69 122 69q69 0 102 -36t33 -96v-233z" />
<glyph unicode="n" horiz-adv-x="374" d="M337 0h-55v236q0 35 -25.5 57t-64.5 22q-44 0 -76 -30q-14 -13 -24 -30v-255h-55v360h55v-60q10 20 25 32q39 33 85 33q69 0 102 -36t33 -96v-233z" />
<glyph unicode="o" horiz-adv-x="393" d="M193 -3q-79 0 -125 47t-46 131q0 90 47 140t131 50q78 0 124.5 -49t46.5 -133q0 -90 -47 -138t-131 -48zM193 40q58 0 90.5 37.5t32.5 105.5q0 63 -31.5 100t-84.5 37q-57 0 -90 -38t-33 -107q0 -63 31 -99t85 -36z" />
<glyph unicode="p" horiz-adv-x="404" d="M92 95q16 -16 34 -28q38 -27 86 -27q42 0 78.5 37.5t36.5 96.5q0 73 -35.5 109.5t-79.5 36.5q-47 0 -86 -28q-16 -11 -34 -27v-170zM37 360h55v-50q12 15 30 27q37 28 90 28q68 0 119 -48.5t51 -142.5q0 -85 -54 -131t-116 -46q-50 0 -90 26q-18 11 -30 27v-208h-55v518z " />
<glyph unicode="q" horiz-adv-x="404" d="M312 265q-18 16 -34 27q-39 28 -86 28q-44 0 -79.5 -36.5t-35.5 -109.5q0 -59 36.5 -96.5t78.5 -37.5q48 0 86 27q18 12 34 28v170zM312 360h55v-518h-55v208q-12 -16 -30 -27q-40 -26 -90 -26q-62 0 -116 46t-54 131q0 94 51 142.5t119 48.5q53 0 90 -28q18 -12 30 -27 v50z" />
<glyph unicode="r" horiz-adv-x="226" d="M219 305q-2 1 -5.5 1.5t-5.5 0.5q-21 3 -26 3q-25 0 -60 -49q-17 -24 -30 -49v-212h-55v360h55v-95q9 28 22 50q30 50 68 50q5 0 26 -3q2 0 5.5 -0.5t5.5 -1.5v-55z" />
<glyph unicode="s" horiz-adv-x="314" d="M257 300q-11 8 -25 12q-32 13 -75 13q-25 0 -45 -16t-20 -39q0 -22 19 -34.5t46 -19.5t54.5 -16.5t46.5 -34.5t19 -65q0 -46 -34 -77t-106 -31q-46 0 -73 11q-16 5 -27 12v45q13 -9 27 -13q29 -12 73 -12q85 0 85 65q0 34 -29 52t-63.5 24t-63.5 29t-29 65q0 40 38 70 t82 30q46 0 76 -13q13 -5 24 -12v-45z" />
<glyph unicode="t" horiz-adv-x="234" d="M72 305h-65v45h65v170h55v-170h100v-45h-100v-184q0 -43 15 -62t47 -19q15 0 29 2l9 3v-45q-2 -1 -6 -1q-3 -1 -5 -1q-8 -1 -46 -1q-98 0 -98 124v184z" />
<glyph unicode="u" horiz-adv-x="374" d="M37 360h55v-236q0 -35 25.5 -57t64.5 -22q44 0 76 30q14 13 24 30v255h55v-360h-55v60q-10 -20 -25 -32q-37 -31 -85 -31q-69 0 -102 35.5t-33 94.5v233z" />
<glyph unicode="v" horiz-adv-x="344" d="M177 65l105 295h55l-125 -360h-70l-135 360h65z" />
<glyph unicode="w" horiz-adv-x="519" d="M367 65l85 295h60l-110 -360h-60l-80 285l-90 -285h-65l-100 360h65l75 -295l95 295h40z" />
<glyph unicode="x" horiz-adv-x="314" d="M157 225l90 135h60l-120 -185l120 -175h-60l-90 130l-90 -130h-60l120 180l-120 180h60z" />
<glyph unicode="y" horiz-adv-x="368" d="M27 -113q2 -2 6 -4.5t6 -3.5q11 -7 28 -7q46 0 65 47l34 81l-155 360h60l125 -285l105 285h60l-168 -429q-24 -59 -48.5 -81.5t-77.5 -22.5q-26 0 -45 7q-13 6 -15 8z" />
<glyph unicode="z" horiz-adv-x="332" d="M56 360h269v-19l-203 -296h200v-45h-285v16l205 299h-186v45z" />
<glyph unicode="{" horiz-adv-x="209" d="M202 -173q-118 0 -118 122v118q0 79 -62 87v43q62 6 62 84v117q0 63 29 93.5t89 33.5v-49q-62 -5 -62 -80v-120q0 -85 -65 -103q65 -16 65 -103v-114q0 -43 13.5 -61.5t48.5 -18.5v-49z" />
<glyph unicode="|" horiz-adv-x="130" d="M93 -124h-56v698h56v-698z" />
<glyph unicode="}" horiz-adv-x="209" d="M7 -124q35 0 48.5 18.5t13.5 61.5v114q0 87 65 103q-65 18 -65 103v120q0 75 -62 80v49q60 -3 89 -33.5t29 -93.5v-117q0 -78 62 -84v-43q-62 -8 -62 -87v-118q0 -122 -118 -122v49z" />
<glyph unicode="~" horiz-adv-x="373" d="M336 259q-4 -94 -85 -94q-28 0 -69 26t-61 26q-43 0 -43 -52h-41q0 42 22.5 68t61.5 26q25 0 67 -26.5t67 -26.5q34 0 39 53h42z" />
<glyph unicode="&#xa9;" horiz-adv-x="657" d="M438 74q-34 -19 -96 -19q-79 0 -126.5 49t-47.5 133q0 85 49 135t130 50q56 0 91 -13l-12 -26q-28 13 -79 13q-66 0 -105.5 -44t-39.5 -115q0 -72 39.5 -113.5t105.5 -41.5q43 0 79 20zM37 242q0 122 85 206.5t207 84.5t206.5 -84.5t84.5 -206.5q0 -121 -84.5 -205 t-206.5 -84t-207 84t-85 205zM67 242q0 -108 76.5 -183.5t185.5 -75.5t185 75t76 184t-76 185t-185 76t-185.5 -76t-76.5 -185z" />
<glyph unicode="&#xae;" horiz-adv-x="657" d="M261 399v-145h53q38 0 65 20.5t27 57.5q0 30 -21.5 48.5t-59.5 18.5h-64zM479 70h-41l-60 99q-15 25 -38 41.5t-38 16.5h-41v-157h-34v357h107q46 0 76 -25t30 -70q0 -82 -87 -97q34 -19 56 -56zM37 242q0 122 85 206.5t207 84.5t206.5 -84.5t84.5 -206.5 q0 -121 -84.5 -205t-206.5 -84t-207 84t-85 205zM67 242q0 -108 76.5 -183.5t185.5 -75.5t185 75t76 184t-76 185t-185 76t-185.5 -76t-76.5 -185z" />
<glyph unicode="&#xbc;" horiz-adv-x="691" d="M574 602l-361 -602h-56l361 602h56zM137 590v-270h-33v226q-33 -22 -60 -28v28q21 9 43 27q9 7 18 17h32zM601 241l-87 -127h87v127zM478 114l123 176h33v-176h34v-28h-34v-66h-33v66h-123v28z" />
<glyph unicode="&#xbd;" horiz-adv-x="704" d="M574 602l-361 -602h-56l361 602h56zM137 590v-270h-33v226q-33 -22 -60 -28v28q21 9 43 27q9 7 18 17h32zM629 224q0 48 -48 48q-46 0 -70 -24v28q24 24 70 24q36 0 58.5 -19.5t22.5 -53.5q0 -27 -19 -54.5t-42 -45.5t-43.5 -40t-23.5 -39h139v-28h-173v26q0 22 20 46.5 t44.5 42.5t44.5 42.5t20 46.5z" />
<glyph unicode="&#xbe;" horiz-adv-x="690" d="M573 602l-361 -602h-56l361 602h56zM196 399q0 -37 -26.5 -58t-69.5 -21q-35 0 -63 16v29q23 -18 63 -18q28 0 45.5 12.5t17.5 36.5q0 28 -22.5 41t-75.5 13v26q23 1 43 6q44 13 44 44q0 46 -43 46q-38 0 -61 -16v27q26 17 61 17q32 0 54 -18.5t22 -46.5q0 -54 -55 -70 q28 -4 47 -22t19 -44zM600 241l-87 -127h87v127zM477 114l123 176h33v-176h34v-28h-34v-66h-33v66h-123v28z" />
<glyph unicode="&#xe01;" horiz-adv-x="429" d="M332 0v280q0 61 -39.5 85.5t-95.5 24.5q-48 0 -86 -30q-18 -15 -29 -30l60 -50q-5 -6 -10 -18q-10 -26 -10 -62v-200h-60v200q0 29 10 59q5 14 10 21q-4 4 -14.5 12.5t-15.5 12.5q-30 24 -30 25q17 31 41 55q57 55 134 55t136 -35.5t59 -104.5v-240q0 -23 -20 -43 q-6 -7 -20 -17h-20z" />
<glyph unicode="&#xe02;" horiz-adv-x="359" d="M112 140q0 -100 75 -100q41 0 58 30t17 70v290h60v-290q0 -148 -135 -148t-135 148v40q0 31 10 57.5t16.5 34.5t23.5 28q20 28 20 40q0 40 -40 40h-60v50h60q46 0 73 -23t27 -67q0 -40 -40 -80q-30 -30 -30 -80v-40z" />
<glyph unicode="&#xe03;" horiz-adv-x="359" d="M112 140q0 -100 75 -100q41 0 58 31t17 72v287h60v-283q0 -155 -135 -155t-135 148v50q0 60 50 110q2 2 9 8t10.5 10t7 12.5t3.5 19.5q0 14 -9 22t-21 8q-9 0 -26 -15q-2 -2 -6.5 -7t-7.5 -8q-8 10 -13 15q-16 16 -27 16v49q11 0 30 -15l15 -15q10 10 16 15q24 15 39 15 q31 0 50.5 -21.5t19.5 -58.5q0 -19 -6.5 -35t-13.5 -24t-20 -21q-40 -40 -40 -80v-50z" />
<glyph unicode="&#xe04;" horiz-adv-x="434" d="M97 180q14 17 31 30q40 30 79 30v-60q-37 0 -79 -25q-14 -8 -31 -25v-130h-60v300q0 65 53.5 102.5t126.5 37.5t126.5 -37.5t53.5 -102.5v-300h-60v300q0 42 -35.5 66t-84.5 24t-84.5 -24t-35.5 -66v-120z" />
<glyph unicode="&#xe05;" horiz-adv-x="434" d="M97 0h-60v300q0 54 35 97t85 43q18 0 41 -25q7 -7 19 -25q12 18 19 25q23 25 41 25q50 0 85 -43t35 -97v-300h-60v300q0 33 -16.5 61.5t-43.5 28.5q-14 0 -38 -30q-16 -21 -22 -30q-5 7 -23 30q-26 30 -37 30q-28 0 -44 -28t-16 -62v-120q14 17 31 30q40 30 79 30v-60 q-37 0 -79 -25q-14 -8 -31 -25v-130z" />
<glyph unicode="&#xe06;" horiz-adv-x="439" d="M112 110q18 -18 34 -30q42 -30 86 -30q59 0 84.5 29.5t25.5 90.5v260h60v-290q0 -57 -38 -102.5t-102 -45.5q-63 0 -113 34q-22 15 -37 34v-60h-60v196q0 26 8 44.5t20 30t24 21.5t20 24.5t8 33.5q0 14 -9 22t-21 8q-9 0 -26 -15q-2 -2 -6.5 -7t-7.5 -8q-5 5 -13 15 q-16 16 -27 16v49q11 0 30 -15l15 -15q10 10 16 15q24 15 39 15q31 0 50.5 -21.5t19.5 -58.5q0 -31 -12.5 -54t-27.5 -34.5t-27.5 -30t-12.5 -41.5v-80z" />
<glyph unicode="&#xe07;" horiz-adv-x="364" d="M92 0l-70 290h60l60 -240q56 0 98 46.5t42 118.5q0 73 -44 119t-106 46v50q91 0 150.5 -59.5t59.5 -155.5q0 -93 -61 -154t-139 -61h-50z" />
<glyph unicode="&#xe08;" horiz-adv-x="414" d="M152 0l-40 160q-4 10 -17 10h-3h-20v50h40q38 0 50 -30l40 -140q62 0 96 52.5t34 122.5q0 80 -45.5 122.5t-104.5 42.5q-63 0 -108 -45q-20 -20 -32 -45l-20 50q11 26 31 45q47 45 129 45q95 0 152.5 -62.5t57.5 -152.5q0 -97 -51 -161t-139 -64h-50z" />
<glyph unicode="&#xe09;" horiz-adv-x="429" d="M62 160q0 30 -12 30h-28v50h40q29 0 44.5 -19.5t15.5 -52.5v-28q0 -49 15.5 -69.5t64.5 -20.5q43 0 91 30q21 14 39 30v150q0 61 -30.5 95.5t-89.5 34.5q-50 0 -100 -30q-21 -13 -40 -30l-20 50q16 16 42 30q54 30 118 30q89 0 134.5 -46t45.5 -124v-270h-60v60 q-16 -17 -41 -34q-54 -34 -109 -34q-59 0 -89.5 39t-30.5 109v20z" />
<glyph unicode="&#xe0a;" horiz-adv-x="384" d="M112 129q0 -41 17.5 -65t69.5 -24q43 0 68 38t25 76q0 56 -23.5 93.5t-66.5 37.5v50q44 0 72 54t28 131h60q0 -48 -10 -87t-22.5 -60t-29.5 -37t-24.5 -20t-13.5 -6q47 -24 69 -64q21 -40 21 -92q0 -68 -35.5 -115t-117.5 -47q-83 0 -115 37.5t-32 103.5v47q0 31 10 57.5 t16.5 34.5t23.5 28q20 28 20 40q0 40 -40 40h-60v50h60q46 0 73 -23t27 -67q0 -40 -40 -80q-30 -30 -30 -80v-51z" />
<glyph unicode="&#xe0b;" horiz-adv-x="384" d="M199 -8q-83 0 -115 37.5t-32 103.5v57q0 60 50 110q2 2 9 8t10.5 10t7 12.5t3.5 19.5q0 14 -9 22t-21 8q-9 0 -26 -15q-2 -2 -6.5 -7t-7.5 -8q-8 10 -13 15q-16 16 -27 16v49q11 0 30 -15l15 -15q10 10 16 15q24 15 39 15q31 0 50.5 -21.5t19.5 -58.5q0 -19 -6.5 -35 t-13.5 -24t-20 -21q-40 -40 -40 -80v-61q0 -41 17.5 -65t69.5 -24q43 0 68 38t25 76q0 56 -23.5 93.5t-66.5 37.5v50q44 0 72 54t28 131h60q0 -48 -10 -87t-22.5 -60t-29.5 -37t-24.5 -20t-13.5 -6q47 -24 69 -64q21 -40 21 -92q0 -68 -35.5 -115t-117.5 -47z" />
<glyph unicode="&#xe0c;" horiz-adv-x="689" d="M392 0h-60v280q0 61 -39.5 85.5t-95.5 24.5q-48 0 -86 -30q-18 -15 -29 -30l60 -50q-5 -6 -10 -18q-10 -26 -10 -62v-130q0 -19 10 -20h30v-50h-40q-31 0 -45.5 16.5t-14.5 53.5v130q0 29 10 59q5 14 10 21q-4 4 -14.5 12.5t-15.5 12.5q-30 24 -30 25q17 31 41 55 q57 55 134 55t136 -35.5t59 -104.5v-190q11 -15 29 -30q38 -30 81 -30q56 0 73 27t17 93v260h60v-290q0 -60 -28.5 -104t-91.5 -44q-62 0 -108 34q-21 16 -32 34v-60z" />
<glyph unicode="&#xe0d;" horiz-adv-x="689" d="M392 143q0 -47 20 -70t67 -23q46 0 84 30q18 15 29 30v320h60v-389q0 -70 -55.5 -119.5t-117.5 -49.5q-49 0 -93 25q-15 8 -34 25l20 50q15 -17 28 -25q37 -25 79 -25q49 0 81 36t32 97v5q-13 -18 -33 -34q-46 -34 -97 -34q-71 0 -100.5 40.5t-29.5 114.5v133 q0 61 -39.5 85.5t-95.5 24.5q-48 0 -86 -30q-18 -15 -29 -30l60 -50q-5 -6 -10 -18q-10 -26 -10 -62v-130q0 -19 10 -20h30v-50h-40q-31 0 -45.5 16.5t-14.5 53.5v130q0 29 10 59q5 14 10 21q-4 4 -14.5 12.5t-15.5 12.5q-30 24 -30 25q17 31 41 55q57 55 134 55t136 -35.5 t59 -104.5v-157z" />
<glyph unicode="&#xe0e;" horiz-adv-x="429" d="M277 -117q31 0 43 14t12 46v337q0 61 -39.5 85.5t-95.5 24.5q-48 0 -86 -30q-18 -15 -29 -30l60 -50q-5 -6 -10 -18q-10 -26 -10 -62v-130q0 -37 -14.5 -53.5t-45.5 -16.5h-40v50h30q10 1 10 20v130q0 29 10 59q5 14 10 21q-4 4 -14.5 12.5t-15.5 12.5q-30 24 -30 25 q17 31 41 55q57 55 134 55t136 -35.5t59 -104.5v-367q0 -100 -106 -100q-41 0 -79 25q-17 10 -32 25q-20 -17 -37 -25q-46 -25 -106 -25v50q60 0 106 25q17 8 37 25q22 -18 33 -25q37 -25 69 -25z" />
<glyph unicode="&#xe0f;" horiz-adv-x="429" d="M122 70q0 -37 -14.5 -53.5t-45.5 -16.5h-40v50h30q10 1 10 20v130q0 29 10 59q5 14 10 21q-4 4 -14.5 12.5t-15.5 12.5q-30 24 -30 25q17 31 41 55q57 55 134 55t136 -35.5t59 -104.5v-357q0 -110 -100 -110q-27 0 -56 25q-9 7 -25 25l-35 -50l-38 50q-20 -16 -35 -25 q-40 -24 -71 -24v49q33 0 71 25q15 9 35 25l38 -50l35 50q30 -50 71 -50q50 0 50 51v346q0 61 -39.5 85.5t-95.5 24.5q-48 0 -86 -30q-18 -15 -29 -30l60 -50q-5 -6 -10 -18q-10 -26 -10 -62v-130z" />
<glyph unicode="&#xe10;" horiz-adv-x="414" d="M152 0l-40 160q-4 10 -17 10h-3h-20v50h40q38 0 50 -30l40 -140q62 0 96 52.5t34 122.5q0 80 -45.5 122.5t-104.5 42.5q-63 0 -108 -45q-20 -20 -32 -45l-20 50q11 26 31 45q47 45 129 45q41 0 80 -14q70 20 70 64h60q0 -36 -25 -58.5t-58 -31.5q83 -63 83 -175 q0 -97 -51 -161t-139 -64h-50zM312 -68h60v-50q0 -10 -2 -20t-9 -28.5t-27.5 -30t-51.5 -11.5q-37 0 -62 25q-9 9 -18 25l-35 -50l-35 50q-12 -16 -24 -25q-31 -25 -76 -25v50q45 0 76 25q12 9 24 25l35 -50l35 50q0 -3 9 -14.5t26.5 -23.5t34.5 -12q40 0 40 40v50z" />
<glyph unicode="&#xe11;" horiz-adv-x="439" d="M112 0h-60v106q0 63 20 117.5t40 89t20 47.5q0 14 -9 22t-21 8q-9 0 -26 -15q-2 -2 -6.5 -7t-7.5 -8q-5 5 -13 15q-16 16 -27 16v49q11 0 30 -15l15 -15q10 10 16 15q24 15 39 15q24 0 44 -16t20 -44q11 18 25 30q32 30 71 30q50 0 85 -47.5t35 -102.5v-290h-60v260 q0 58 -19.5 89t-50.5 31q-36 0 -68 -30.5t-51 -73t-30 -82.5t-11 -64v-16v-114z" />
<glyph unicode="&#xe12;" horiz-adv-x="689" d="M592 430h60v-290q0 -60 -28.5 -104t-91.5 -44q-62 0 -108 34q-21 16 -32 34v-60h-60v308q0 34 -16.5 58t-43.5 24q-14 0 -38 -30q-16 -21 -22 -30q-5 7 -23 30q-26 30 -37 30q-27 0 -48.5 -41t-21.5 -129q0 -81 26.5 -130.5t83.5 -49.5q18 0 30 5q5 2 10 5v-50 q-2 0 -5.5 -2t-4.5 -2q-9 -4 -30 -4q-80 0 -125 63.5t-45 164.5q0 111 36.5 165.5t93.5 54.5q10 0 37 -25q7 -7 23 -25q11 14 22 25q25 25 38 25q51 0 85.5 -39.5t34.5 -92.5v-198q11 -15 29 -30q38 -30 81 -30q56 0 73 27t17 93v260z" />
<glyph unicode="&#xe13;" horiz-adv-x="689" d="M392 170q0 -66 17 -93t73 -27q43 0 81 30q18 15 29 30v320h60v-430h-60v60q-13 -18 -33 -34q-46 -34 -107 -34q-63 0 -91.5 44t-28.5 104v140q0 61 -39.5 85.5t-95.5 24.5q-48 0 -86 -30q-18 -15 -29 -30l60 -50q-5 -6 -10 -18q-10 -26 -10 -62v-130q0 -19 10 -20h30v-50 h-40q-31 0 -45.5 16.5t-14.5 53.5v130q0 29 10 59q5 14 10 21q-4 4 -14.5 12.5t-15.5 12.5q-30 24 -30 25q17 31 41 55q57 55 134 55t136 -35.5t59 -104.5v-130z" />
<glyph unicode="&#xe14;" horiz-adv-x="429" d="M232 0q-2 0 -5 -2t-4 -2q-9 -4 -31 -4q-76 0 -123 62t-47 166q0 111 56 165.5t134 54.5q75 0 127.5 -35t52.5 -105v-300h-60v300q0 42 -35.5 66t-84.5 24q-51 0 -90.5 -44.5t-39.5 -125.5t26.5 -130.5t83.5 -49.5q19 0 31 5q3 1 9 5v-50z" />
<glyph unicode="&#xe15;" horiz-adv-x="429" d="M232 0q-2 0 -5.5 -2t-4.5 -2q-9 -4 -30 -4q-80 0 -125 63.5t-45 164.5q0 111 36.5 165.5t93.5 54.5q18 0 41 -25q7 -7 19 -25q12 18 19 25q23 25 41 25q45 0 82.5 -40.5t37.5 -91.5v-308h-60v308q0 31 -18.5 56.5t-41.5 25.5q-14 0 -38 -30q-16 -21 -22 -30q-5 7 -23 30 q-26 30 -37 30q-16 0 -31 -14.5t-27 -55t-12 -100.5q0 -81 26.5 -130.5t83.5 -49.5q18 0 30 5q5 2 10 5v-50z" />
<glyph unicode="&#xe16;" horiz-adv-x="429" d="M122 70q0 -19 10 -20h30v-50h-40q-31 0 -45.5 16.5t-14.5 53.5v130q0 29 10 59q5 14 10 21q-4 4 -14.5 12.5t-15.5 12.5q-30 24 -30 25q17 31 41 55q57 55 134 55t136 -35.5t59 -104.5v-240q0 -23 -20 -43q-6 -7 -20 -17h-20v280q0 61 -39.5 85.5t-95.5 24.5 q-48 0 -86 -30q-18 -15 -29 -30l60 -50q-5 -6 -10 -18q-10 -26 -10 -62v-130z" />
<glyph unicode="&#xe17;" horiz-adv-x="424" d="M97 0h-60v430h60v-60q14 18 37 35q51 35 113 35q64 0 102 -46t38 -104v-290h-60v260q0 61 -25.5 90.5t-84.5 29.5q-44 0 -86 -30q-16 -12 -34 -30v-320z" />
<glyph unicode="&#xe18;" horiz-adv-x="424" d="M377 351q-28 12 -50 20q-56 20 -110 20q-120 0 -120 -61q0 -30 30 -41.5t72.5 -14.5t85 -11t72.5 -42t30 -96q0 -55 -41.5 -94t-128.5 -39q-170 0 -170 138v70h60v-70q0 -25 8.5 -43t19.5 -27t28.5 -13.5t28 -5.5t25.5 -1q49 0 79.5 25t30.5 60q0 48 -30 71.5t-72.5 28 l-85 9t-72.5 27t-30 69.5q0 32 18 55.5t47 34.5t57 16t58 5q54 0 110 -20q22 -8 50 -20v-50z" />
<glyph unicode="&#xe19;" horiz-adv-x="424" d="M327 430h60v-430h-60v60q-17 -20 -38 -34q-50 -34 -112 -34q-64 0 -102 45.5t-38 102.5v290h60v-260q0 -61 25.5 -90.5t84.5 -29.5q44 0 86 30q16 12 34 30v320z" />
<glyph unicode="&#xe1a;" horiz-adv-x="414" d="M170 -8q-64 0 -98.5 46t-34.5 109v283h60v-287q0 -39 21.5 -71t65.5 -32h42q43 0 67 32.5t24 70.5v287h60v-283q0 -63 -36.5 -109t-100.5 -46h-70z" />
<glyph unicode="&#xe1b;" horiz-adv-x="414" d="M170 -8q-64 0 -98.5 46t-34.5 109v283h60v-287q0 -39 21.5 -71t65.5 -32h42q43 0 67 32.5t24 70.5v417h60v-413q0 -63 -36.5 -109t-100.5 -46h-70z" />
<glyph unicode="&#xe1c;" horiz-adv-x="500" d="M463 430q-11 -173 -51 -318q-18 -63 -39 -112h-40l-90 215l-90 -215h-40q-23 53 -38 103q-38 126 -38 226q0 101 65 101h42v-50h-28q-22 0 -22 -52q0 -72 24 -158q8 -28 25 -70l85 210h30l85 -210q13 24 25 72q26 103 35 258h60z" />
<glyph unicode="&#xe1d;" horiz-adv-x="500" d="M463 570q0 -236 -45 -424q-20 -85 -45 -146h-40l-90 215l-90 -215h-40q-23 53 -38 103q-38 126 -38 226q0 101 65 101h42v-50h-28q-22 0 -22 -52q0 -72 24 -158q8 -28 25 -70l85 210h30l85 -210q17 44 30 111q30 152 30 359h60z" />
<glyph unicode="&#xe1e;" horiz-adv-x="522" d="M261 324l-94 -324h-37l-123 430h57l87 -307l92 307h36l91 -307l88 307h57l-122 -430h-37z" />
<glyph unicode="&#xe1f;" horiz-adv-x="562" d="M261 324l-94 -324h-37l-123 430h57l87 -307l92 307h36l91 -307l128 447h57l-162 -570h-37z" />
<glyph unicode="&#xe20;" horiz-adv-x="429" d="M122 70q0 -37 -14.5 -53.5t-45.5 -16.5h-40v50h30q10 1 10 20v130q0 29 10 59q5 14 10 21q-4 4 -14.5 12.5t-15.5 12.5q-30 24 -30 25q17 31 41 55q57 55 134 55t136 -35.5t59 -104.5v-240q0 -23 -20 -43q-6 -7 -20 -17h-20v280q0 61 -39.5 85.5t-95.5 24.5 q-48 0 -86 -30q-18 -15 -29 -30l60 -50q-5 -6 -10 -18q-10 -26 -10 -62v-130z" />
<glyph unicode="&#xe21;" horiz-adv-x="424" d="M37 0v430h60v-320q18 -18 34 -30q42 -30 86 -30q59 0 84.5 29.5t25.5 90.5v260h60v-290q0 -57 -38 -102.5t-102 -45.5q-63 0 -113 34q-22 15 -37 34v-60h-60z" />
<glyph unicode="&#xe22;" horiz-adv-x="399" d="M22 125q0 58 50 96q23 17 50 24q-24 4 -45 17q-45 29 -45 78q0 51 31.5 75.5t68.5 24.5q36 0 54 -5q4 -1 9 -3t7 -2v-50l-15 5q-18 5 -45 5q-23 0 -36.5 -14.5t-13.5 -35.5q0 -32 30.5 -51t79.5 -19v-50q-57 0 -88.5 -31.5t-31.5 -63.5q0 -85 108 -85q57 0 84.5 31.5 t27.5 71.5v287h60v-283q0 -65 -42 -110t-130 -45q-168 0 -168 133z" />
<glyph unicode="&#xe23;" horiz-adv-x="354" d="M297 350q-13 12 -30 20q-36 20 -90 20q-33 0 -56.5 -16t-23.5 -44q0 -30 22.5 -47t55 -25.5t65 -20t55 -39t22.5 -73.5q0 -133 -150 -133q-55 0 -95 19q-17 7 -35 19v50q21 -12 39 -20q44 -20 91 -20t68.5 24t21.5 61q0 27 -16.5 43.5t-40.5 23t-53 15.5t-53 19.5 t-40.5 37t-16.5 66.5q0 49 42 79.5t98 30.5q54 0 90 -20q17 -8 30 -20v-50z" />
<glyph unicode="&#xe24;" horiz-adv-x="429" d="M122 70q0 -19 10 -20h30v-50h-40q-31 0 -45.5 16.5t-14.5 53.5v130q0 29 10 59q5 14 10 21q-4 4 -14.5 12.5t-15.5 12.5q-30 24 -30 25q17 31 41 55q57 55 134 55t136 -35.5t59 -104.5v-448q0 -23 -20 -43q-6 -7 -20 -17h-20v488q0 61 -39.5 85.5t-95.5 24.5 q-48 0 -86 -30q-18 -15 -29 -30l60 -50q-5 -6 -10 -18q-10 -26 -10 -62v-130z" />
<glyph unicode="&#xe25;" horiz-adv-x="389" d="M352 0h-60v210q-7 -6 -20 -10q-30 -10 -80 -10q-38 0 -74 -20t-36 -60q0 -35 23.5 -52.5t56.5 -17.5q19 0 36 5q7 1 14 5v-50q-1 0 -6 -1.5t-8 -2.5q-12 -4 -36 -4q-140 0 -140 118q0 68 50 99t120 31q54 0 84 10q12 4 16 10v26q0 45 -24.5 74.5t-75.5 29.5 q-57 0 -104 -45q-21 -19 -36 -45l-20 50q14 27 35 45q49 45 125 45q160 0 160 -170v-270z" />
<glyph unicode="&#xe26;" horiz-adv-x="429" d="M122 70q0 -37 -14.5 -53.5t-45.5 -16.5h-40v50h30q10 1 10 20v130q0 29 10 59q5 14 10 21q-4 4 -14.5 12.5t-15.5 12.5q-30 24 -30 25q17 31 41 55q57 55 134 55t136 -35.5t59 -104.5v-448q0 -23 -20 -43q-6 -7 -20 -17h-20v488q0 61 -39.5 85.5t-95.5 24.5 q-48 0 -86 -30q-18 -15 -29 -30l60 -50q-5 -6 -10 -18q-10 -26 -10 -62v-130z" />
<glyph unicode="&#xe27;" horiz-adv-x="384" d="M42 90q14 -16 30 -25q38 -25 90 -25q61 0 100.5 48.5t39.5 126.5q0 77 -39 121t-101 44q-54 0 -90 -20q-17 -8 -30 -20l-20 50q12 15 29 25q44 25 111 25q85 0 142.5 -60.5t57.5 -164.5q0 -105 -57 -164t-143 -59q-69 0 -111 24q-19 11 -29 24z" />
<glyph unicode="&#xe28;" horiz-adv-x="434" d="M97 180q14 17 31 30q40 30 79 30v-60q-37 0 -79 -25q-14 -8 -31 -25v-130h-60v300q0 65 53.5 102.5t126.5 37.5q34 0 64 -9q56 23 56 59h60q0 -53 -62 -83q62 -39 62 -107v-300h-60v300q0 42 -35.5 66t-84.5 24t-84.5 -24t-35.5 -66v-120z" />
<glyph unicode="&#xe29;" horiz-adv-x="414" d="M317 210h-90v50h90v169h60v-169h30v-50h-30v-63q0 -63 -36.5 -109t-100.5 -46h-70q-64 0 -98.5 46t-34.5 109v283h60v-287q0 -39 21.5 -71t65.5 -32h42q43 0 67 32.5t24 70.5v67z" />
<glyph unicode="&#xe2a;" horiz-adv-x="389" d="M352 0h-60v210q-7 -6 -20 -10q-30 -10 -80 -10q-38 0 -74 -20t-36 -60q0 -35 23.5 -52.5t56.5 -17.5q19 0 36 5q7 1 14 5v-50q-1 0 -6 -1.5t-8 -2.5q-12 -4 -36 -4q-140 0 -140 118q0 68 50 99t120 31q54 0 84 10q12 4 16 10v26q0 45 -24.5 74.5t-75.5 29.5 q-57 0 -104 -45q-21 -19 -36 -45l-20 50q14 27 35 45q49 45 125 45q28 0 52 -6q48 22 48 56h60q0 -51 -55 -79q55 -42 55 -141v-270z" />
<glyph unicode="&#xe2b;" horiz-adv-x="404" d="M97 240l190 190h79l-144 -144q145 -30 145 -166v-120h-60v106q0 39 -13.5 69.5t-34.5 46t-38 23.5t-31 10l-93 -95v-160h-60v430h60v-190z" />
<glyph unicode="&#xe2c;" horiz-adv-x="562" d="M261 324l-94 -324h-37l-123 430h57l87 -307l92 307h36l91 -307l69 240q4 11 4 24q0 32 -32 56q-14 11 -31 17q35 10 59 25q59 35 59 85h57q0 -62 -58 -92q-25 -14 -57 -18q13 -6 30 -19q30 -26 30 -57q0 -10 -3 -20l-104 -364h-37z" />
<glyph unicode="&#xe2d;" horiz-adv-x="424" d="M22 300q7 38 30 70q48 70 155 70q52 0 91.5 -20.5t61 -54.5t32 -72t10.5 -78q0 -110 -55 -166.5t-140 -56.5q-81 0 -133 43t-52 120q0 35 10.5 50t39.5 15h90v-50h-65q-15 0 -15 -15q0 -49 29.5 -82t95.5 -33q69 0 102 46.5t33 128.5q0 77 -36 126t-99 49q-65 0 -102 -45 q-17 -19 -24 -45h-59z" />
<glyph unicode="&#xe2e;" horiz-adv-x="424" d="M22 300q7 38 30 70q48 70 155 70q29 0 58 -8q61 19 61 58h56q0 -31 -19.5 -52t-46.5 -30q44 -30 65 -82.5t21 -110.5q0 -110 -55 -166.5t-140 -56.5q-81 0 -133 43t-52 120q0 35 10.5 50t39.5 15h90v-50h-65q-15 0 -15 -15q0 -49 29.5 -82t95.5 -33q69 0 102 46.5 t33 128.5q0 77 -36 126t-99 49q-65 0 -102 -45q-17 -19 -24 -45h-59z" />
<glyph unicode="&#xe2f;" horiz-adv-x="389" d="M82 430q12 -46 31.5 -68t58.5 -22q43 0 76 23.5t44 66.5h60v-283q0 -78 -20 -112.5t-79 -34.5v50q16 0 23 4.5t11.5 26t4.5 69.5v210q-12 -20 -29 -35q-41 -35 -91 -35q-62 0 -100.5 36.5t-49.5 103.5h60z" />
<glyph unicode="&#xe30;" horiz-adv-x="254" d="M217 329l-20 -49h-76q-44 0 -64 18t-20 62v30h56v-37q0 -13 8.5 -18.5t33.5 -5.5h82zM217 109l-20 -49h-76q-44 0 -64 18t-20 62v30h56v-37q0 -13 8.5 -18.5t33.5 -5.5h82z" />
<glyph unicode="&#xe31;" d="M30 554l-20 -49h-169q-44 0 -64 18t-20 62v30h56v-37q0 -13 8.5 -18.5t33.5 -5.5h175z" />
<glyph unicode="&#xe32;" horiz-adv-x="339" d="M22 400q13 11 29 20q35 20 81 20q66 0 118 -41.5t52 -118.5v-280h-60v270q0 59 -34.5 89.5t-85.5 30.5q-42 0 -73 -20q-15 -8 -27 -20v50z" />
<glyph unicode="&#xe33;" horiz-adv-x="339" d="M22 400q13 11 29 20q35 20 81 20q66 0 118 -41.5t52 -118.5v-280h-60v270q0 59 -34.5 89.5t-85.5 30.5q-42 0 -73 -20q-15 -8 -27 -20v50zM-195 585q0 33 23.5 56.5t56.5 23.5t56.5 -23.5t23.5 -56.5t-23.5 -56.5t-56.5 -23.5t-56.5 23.5t-23.5 56.5zM-145 585 q0 -13 8.5 -21.5t21.5 -8.5q12 0 21 8.5t9 21.5q0 12 -9 21t-21 9q-13 0 -21.5 -9t-8.5 -21z" />
<glyph unicode="&#xe34;" d="M-57 505h-280l20 50h260v-50z" />
<glyph unicode="&#xe35;" d="M-57 505h-280l20 50h200v60h60v-110z" />
<glyph unicode="&#xe36;" d="M-337 505l20 50h132q-2 14 -2 15q0 27 19 46t46 19t46 -19t19 -46t-19 -46t-46 -19h-215zM-137 570q0 -6 4.5 -10.5t10.5 -4.5t10.5 4.5t4.5 10.5t-4.5 10.5t-10.5 4.5t-10.5 -4.5t-4.5 -10.5z" />
<glyph unicode="&#xe37;" d="M-57 505h-280l20 50h120v60h50v-60h30v60h60v-110z" />
<glyph unicode="&#xe38;" d="M-35 -213h-60v66q0 9 -6.5 16.5t-15.5 7.5h-28v50h42q32 0 50 -19t18 -51v-70z" />
<glyph unicode="&#xe39;" d="M-215 -147q0 9 -6.5 16.5t-15.5 7.5h-28v50h42q32 0 50 -19t18 -51q0 -30 30 -30t30 30v70h60v-74q0 -34 -19 -55t-71 -21t-71 21t-19 55z" />
<glyph unicode="&#xe3a;" d="M-35 -133h-60v60h60v-60z" />
<glyph unicode="&#xe3f;" horiz-adv-x="384" d="M347 140q0 -59 -44 -98.5t-113 -41.5v-82h-57v82h-96v490h96v84h57v-85q59 -3 93 -34.5t34 -79.5q0 -40 -23.5 -72t-62.5 -43q51 -9 83.5 -40.5t32.5 -79.5zM97 235v-185h76q50 0 82 25.5t32 64.5q0 45 -32.5 70t-92.5 25h-65zM97 440v-155h59q47 0 74 20.5t27 59.5 q0 75 -95 75h-65z" />
<glyph unicode="&#xe40;" horiz-adv-x="159" d="M37 430h60v-360q0 -19 10 -20h30v-50h-40q-31 0 -45.5 16.5t-14.5 53.5v360z" />
<glyph unicode="&#xe41;" horiz-adv-x="329" d="M37 430h60v-360q0 -19 10 -20h30v-50h-40q-31 0 -45.5 16.5t-14.5 53.5v360zM207 430h60v-360q0 -19 10 -20h30v-50h-40q-31 0 -45.5 16.5t-14.5 53.5v360z" />
<glyph unicode="&#xe42;" horiz-adv-x="212" d="M90 406q0 48 -10 96t-10 61q0 45 32.5 66t106.5 21h91v-50h-77q-53 0 -73 -8.5t-20 -31.5q0 -11 10 -58.5t10 -95.5v-336q0 -19 10 -20h30v-50h-40q-31 0 -45.5 16.5t-14.5 53.5v336z" />
<glyph unicode="&#xe43;" horiz-adv-x="272" d="M210 70q0 -19 10 -20h30v-50h-40q-31 0 -45.5 16.5t-14.5 53.5v311q0 44 10 89t10 61q0 79 -74 79q-33 0 -58 -25q-9 -9 -18 -25l-20 50q8 15 21 25q31 25 78 25q131 0 131 -129q0 -27 -10 -65t-10 -85v-311z" />
<glyph unicode="&#xe44;" horiz-adv-x="272" d="M210 70q0 -19 10 -20h30v-50h-40q-31 0 -45.5 16.5t-14.5 53.5v440q0 3 0.5 14t0 18.5t-0.5 18t-2 17.5t-5 13.5t-8.5 8.5t-12.5 0q-14 -5 -27 -28q-2 -4 -10 -22q-12 16 -24 25q-31 25 -61 25v50q40 0 79 -39q7 9 18 19q22 20 53 20q17 0 29 -8t18 -18.5t9 -32.5 t3.5 -36.5t0.5 -44.5v-440z" />
<glyph unicode="&#xe45;" horiz-adv-x="339" d="M22 400q13 11 29 20q35 20 81 20q66 0 118 -41.5t52 -118.5v-428q0 -23 -20 -43q-6 -7 -20 -17h-20v478q0 59 -34.5 89.5t-85.5 30.5q-42 0 -73 -20q-15 -8 -27 -20v50z" />
<glyph unicode="&#xe46;" horiz-adv-x="399" d="M362 -148q0 -23 -20 -43q-6 -7 -20 -17h-20v508q0 90 -50 90q-14 0 -38 -30q-16 -21 -22 -30q-5 7 -23 30q-26 30 -37 30q-23 0 -36.5 -19.5t-13.5 -50.5q0 -33 15 -54q6 -10 15 -16l-20 -50q-21 6 -35 22q-35 31 -35 98q0 53 27.5 86.5t72.5 33.5q15 0 46 -25 q8 -7 24 -25q16 18 24 25q31 25 46 25q49 0 74.5 -35.5t25.5 -84.5v-468z" />
<glyph unicode="&#xe47;" d="M-158 655q38 0 62 15q10 6 18 15v-50q-6 -5 -18 -10q-26 -10 -62 -10h-70q-50 0 -50 -40q0 -11 8 -20.5t22 -9.5q21 0 34 15q6 8 7 15h19q2 -9 6 -15q8 -15 24 -15q14 0 22 10t8 20h50q0 -30 -20 -50t-50 -20q-18 0 -36 10q-10 6 -14 10q-5 -5 -15 -10q-22 -10 -45 -10 q-27 0 -48.5 16t-21.5 54q0 32 17.5 51.5t35.5 24t37 4.5h80z" />
<glyph unicode="&#xe48;" d="M-95 505v110h60v-110h-60z" />
<glyph unicode="&#xe49;" d="M0 555l-18 -50h-150q-22 0 -36 12t-14 28q0 20 -18 20h-32v50h70q15 0 27.5 -12.5t12.5 -27.5q0 -8 6 -14t14 -6h138z" />
<glyph unicode="&#xe4a;" d="M-173 595q5 6 11 10q14 10 34 10q28 0 44 -15t16 -35q0 -5 1.5 -7.5t3 -2.5h6.5h57l-18 -50h-53q-47 0 -47 40q0 30 -20 30q-12 0 -18.5 -9t-6.5 -21h-20q0 30 -25 30q-8 0 -14 -9t-6 -21q0 -17 10 -31q6 -6 10 -9h-60q-4 3 -10 9q-10 14 -10 31q0 30 20 50t50 20 q18 0 34 -10q8 -6 11 -10z" />
<glyph unicode="&#xe4b;" d="M-95 585v30h60v-30h48v-50h-48v-30h-60v30h-50v50h50z" />
<glyph unicode="&#xe4c;" d="M-128 505h-60v21q0 38 23.5 63.5t64.5 25.5h52l-20 -50h-18q-42 0 -42 -43v-17z" />
<glyph unicode="&#xe4d;" d="M-195 585q0 33 23.5 56.5t56.5 23.5t56.5 -23.5t23.5 -56.5t-23.5 -56.5t-56.5 -23.5t-56.5 23.5t-23.5 56.5zM-145 585q0 -13 8.5 -21.5t21.5 -8.5q12 0 21 8.5t9 21.5q0 12 -9 21t-21 9q-13 0 -21.5 -9t-8.5 -21z" />
<glyph unicode="&#xe4e;" d="M-218 505q-11 20 -11 38q0 33 23.5 53.5t59.5 20.5q0 63 98 63v-35q-19 0 -28 -1t-20 -7.5t-15.5 -21.5t-4.5 -40q-57 0 -57 -38q0 -16 7 -24l8 -8h-60z" />
<glyph unicode="&#xe4f;" horiz-adv-x="454" d="M227 271q38 0 64.5 -26.5t26.5 -64.5t-26.5 -64.5t-64.5 -26.5t-64.5 26.5t-26.5 64.5t26.5 64.5t64.5 26.5zM227 370q79 0 134.5 -55t55.5 -135q0 -79 -55 -133.5t-135 -54.5q-79 0 -134.5 54.5t-55.5 133.5t55.5 134.5t134.5 55.5zM227 314q-55 0 -94.5 -39t-39.5 -95 q0 -55 39.5 -94.5t94.5 -39.5q56 0 95 39.5t39 94.5q0 56 -39 95t-95 39z" />
<glyph unicode="&#xe50;" horiz-adv-x="425" d="M22 180q0 79 55.5 134.5t134.5 55.5t135 -55.5t56 -134.5q0 -78 -56 -133t-135 -55t-134.5 54.5t-55.5 133.5zM82 180q0 -58 38 -99t92 -41t92.5 41t38.5 99t-38.5 99t-92.5 41t-92 -41t-38 -99z" />
<glyph unicode="&#xe51;" horiz-adv-x="424" d="M172 10h4q60 0 113 45t53 110q0 75 -38.5 115t-97.5 40q-63 0 -93.5 -35.5t-30.5 -68.5t18.5 -59.5t40.5 -26.5q41 0 41 39v19h60v-21q0 -34 -23 -60.5t-78 -26.5q-46 0 -82.5 37.5t-36.5 98.5q0 60 52.5 107t131.5 47q83 0 139.5 -54t56.5 -151q0 -87 -68 -145t-158 -58 q-11 0 -18 1z" />
<glyph unicode="&#xe52;" horiz-adv-x="529" d="M218 -8q-51 0 -91 33t-40 101v301q0 93 -80 93v49h15q66 0 95.5 -45t29.5 -100v-301q0 -45 27 -64t58 -19h131q34 0 59 19t25 64v111q0 32 -14 59t-41 27q-17 0 -32 -20q-3 -4 -8 -11t-6 -9q-8 14 -13 20q-15 20 -31 20q-20 0 -32.5 -13t-12.5 -31q0 -66 80 -66v-50 q-23 0 -44.5 4.5t-44.5 15.5t-37 35.5t-14 60.5q0 32 23.5 63t66.5 31q23 0 45 -14q8 -5 15 -14q7 9 15 14q22 14 45 14q50 0 75 -41t25 -95v-108q0 -69 -38 -101.5t-92 -32.5h-159z" />
<glyph unicode="&#xe53;" horiz-adv-x="524" d="M362 320q-31 0 -53 -39.5t-22 -110.5h-50q0 67 -22 108.5t-53 41.5q-33 0 -56.5 -35.5t-23.5 -102.5q0 -59 26.5 -100.5t74.5 -41.5q15 0 28 5q6 1 11 5v-50q-1 0 -5 -1.5t-6 -2.5q-9 -4 -29 -4q-65 0 -112.5 53.5t-47.5 136.5q0 92 34 140t95 48q49 0 86 -45 q16 -18 25 -45q9 27 25 45q33 45 85 45q59 0 94.5 -48t35.5 -140q0 -68 -25 -133q-9 -24 -25 -49h-60q16 25 25 49q25 65 25 133q0 59 -21 98.5t-59 39.5z" />
<glyph unicode="&#xe54;" horiz-adv-x="509" d="M163 310q-39 0 -60 -40.5t-21 -94.5q0 -52 20.5 -88.5t60.5 -36.5h178q-29 15 -51 36q-50 48 -50 110h62q0 -59 40 -102.5t80 -43.5h50v-50h-309q-66 0 -103.5 51t-37.5 124q0 74 38 129.5t103 55.5h168q38 0 59.5 16t21.5 62v132h60v-129q0 -69 -35 -100t-92 -31h-182z " />
<glyph unicode="&#xe55;" horiz-adv-x="509" d="M202 390q0 33 23.5 56.5t56.5 23.5t56.5 -23.5t23.5 -56.5q0 -12 -5 -29q55 12 55 77v132h60v-129q0 -69 -35 -100t-92 -31h-182q-39 0 -60 -40.5t-21 -94.5q0 -52 20.5 -88.5t60.5 -36.5h178q-29 15 -51 36q-50 48 -50 110h62q0 -59 40 -102.5t80 -43.5h50v-50h-309 q-66 0 -103.5 51t-37.5 124q0 74 38 129.5t103 55.5h45q-6 14 -6 30zM252 390q0 -13 8.5 -21.5t21.5 -8.5h3q27 5 27 30q0 12 -9 21t-21 9q-13 0 -21.5 -9t-8.5 -21z" />
<glyph unicode="&#xe56;" horiz-adv-x="579" d="M187 210q-17 67 -26 99.5t-23 76t-25 62t-27.5 39t-35 27t-43.5 6.5v50h21q25 0 46 -7.5t36 -17t29.5 -30t23 -35t19.5 -44t16 -45.5t15 -51.5t14 -49.5q10 21 29 40q42 40 111 40q87 0 138.5 -51t51.5 -129q0 -85 -51.5 -141.5t-138.5 -56.5q-59 0 -104.5 31.5 t-65.5 86.5h60q14 -32 46 -51t64 -19q53 0 91.5 42t38.5 108q0 54 -36 92t-94 38q-49 0 -79 -31t-41 -79h-60z" />
<glyph unicode="&#xe57;" horiz-adv-x="679" d="M352 310q-31 0 -55.5 -32t-24.5 -88h-40q0 50 -25 85t-55 35q-70 0 -70 -128q0 -59 26.5 -100.5t74.5 -41.5q15 0 28 5q6 1 11 5v-50q-1 0 -5 -1.5t-6 -2.5q-9 -4 -29 -4q-65 0 -112.5 53.5t-47.5 136.5q0 86 35 132t84 46q27 0 49 -12t35 -31t18.5 -28.5t8.5 -18.5 q0 5 10.5 25t38 42.5t61.5 22.5q50 0 85 -45t35 -133q0 -70 -25 -132q28 3 51.5 24.5t23.5 61.5v302q0 53 29.5 92.5t96.5 39.5h14v-50q-48 0 -64 -20.5t-16 -58.5v-301q0 -69 -39.5 -104.5t-90.5 -35.5h-90q16 25 25 49q25 65 25 133q0 128 -70 128z" />
<glyph unicode="&#xe58;" horiz-adv-x="509" d="M412 140h60v-26q0 -61 -36.5 -91.5t-98.5 -30.5q-46 0 -80 24q-14 10 -25 24q-8 -14 -18 -24q-26 -24 -62 -24q-49 0 -89.5 51.5t-40.5 138.5q0 72 45 125t124 53h140q38 0 59.5 16t21.5 62v132h60v-129q0 -69 -35 -100t-92 -31h-154q-49 0 -79 -40.5t-30 -90.5 q0 -59 21 -99t60 -40q32 0 52 35q8 11 17 35q12 -22 25 -35q31 -35 80 -35q30 0 52.5 17.5t22.5 56.5v26z" />
<glyph unicode="&#xe59;" horiz-adv-x="619" d="M522 570h60v-122q0 -72 -23 -120t-77 -48q-34 0 -60 17.5t-45 35t-35 17.5q-25 0 -40 -16.5t-15 -36.5q0 -8 1 -10l16 -55q3 -10 65 -232h-56l-70 250q-8 28 -27.5 50t-52.5 22q-30 0 -55.5 -37t-25.5 -103q0 -60 24 -101t71 -41q14 0 26 5q3 1 9 5v-50q-1 0 -4 -2t-5 -2 q-9 -4 -26 -4q-62 0 -108.5 53.5t-46.5 136.5q0 86 44.5 137t96.5 51q32 0 52 -11.5t42 -33.5q24 75 85 75q32 0 74 -35.5t61 -35.5q45 0 45 119v122z" />
<glyph unicode="&#xe5a;" horiz-adv-x="509" d="M472 0h-60v430h60v-430zM82 430q12 -46 31.5 -68t58.5 -22q43 0 76 23.5t44 66.5h60v-283q0 -78 -20 -112.5t-79 -34.5v50q16 0 23 4.5t11.5 26t4.5 69.5v210q-12 -20 -29 -35q-41 -35 -91 -35q-62 0 -100.5 36.5t-49.5 103.5h60z" />
<glyph unicode="&#xe5b;" horiz-adv-x="714" d="M220 -8q-77 0 -130 53.5t-53 128.5q0 82 49.5 139t129.5 57q92 0 139 -67q18 -28 26 -67h-58q-6 25 -19 42q-30 42 -88 42q-51 0 -85 -42.5t-34 -103.5q0 -57 34.5 -95t88.5 -39q41 0 78 25q15 10 27 25l52 -50l39 50l46 -50l41 50q11 -14 22 -25q25 -25 48 -25t33.5 12 t10.5 25q0 21 -10 37q-5 8 -10 12h60q6 -5 10 -11q10 -16 10 -38q0 -11 -3 -23t-11.5 -27.5t-28 -25t-47.5 -9.5q-31 0 -61 24q-11 9 -23 24l-41 -48l-46 48l-39 -48l-52 48q-13 -14 -28 -24q-38 -24 -77 -24z" />
<glyph unicode="&#x2013;" horiz-adv-x="374" d="M337 190h-300v50h300v-50z" />
<glyph unicode="&#x2014;" horiz-adv-x="564" d="M527 190h-490v50h490v-50z" />
<glyph unicode="&#x2018;" horiz-adv-x="134" d="M97 360h-60v60q0 40 35 77q14 17 35 33h50q-17 -18 -30 -36q-30 -42 -30 -74v-60z" />
<glyph unicode="&#x2019;" horiz-adv-x="134" d="M37 530h60v-60q0 -37 -35 -78q-19 -21 -35 -32h-48q11 12 29 36q29 41 29 74v60z" />
<glyph unicode="&#x201c;" horiz-adv-x="244" d="M97 360h-60v60q0 40 35 77q14 17 35 33h50q-17 -18 -30 -36q-30 -42 -30 -74v-60zM207 360h-60v60q0 40 35 77q14 17 35 33h50q-17 -18 -30 -36q-30 -42 -30 -74v-60z" />
<glyph unicode="&#x201d;" horiz-adv-x="244" d="M147 530h60v-60q0 -37 -35 -78q-19 -21 -35 -32h-50q17 18 30 36q30 42 30 74v60zM37 530h60v-60q0 -37 -35 -78q-19 -21 -35 -32h-48q11 12 29 36q29 41 29 74v60z" />
<glyph unicode="&#x2022;" horiz-adv-x="256" d="M128 308q38 0 64.5 -26.5t26.5 -64.5t-26.5 -64.5t-64.5 -26.5t-64.5 26.5t-26.5 64.5t26.5 64.5t64.5 26.5z" />
<glyph unicode="&#x2026;" horiz-adv-x="554" d="M97 0h-60v60h60v-60zM307 0h-60v60h60v-60zM517 0h-60v60h60v-60z" />
<glyph unicode="&#x20ac;" horiz-adv-x="504" d="M37 270v50h59q21 85 83.5 132.5t153.5 47.5t134 -20l-20 -50q-41 20 -114 20q-64 0 -110 -34.5t-65 -95.5h199v-50h-209q-1 -11 -1 -30q0 -17 1 -25h189v-50h-180q18 -60 64 -92.5t112 -32.5q36 0 58.5 6.5t55.5 23.5l20 -50q-52 -28 -141 -28t-150 45.5t-81 127.5h-58 v50h50v25q0 19 1 30h-51z" />
<glyph unicode="&#x2122;" horiz-adv-x="387" d="M37 490h117v-17h-47v-153h-21v153h-49v17zM326 490h24v-170h-17v140l-65 -140h-10l-61 140v-140h-20v170h27l59 -138z" />
<glyph unicode="&#xe000;" horiz-adv-x="360" d="M0 360h360v-360h-360v360z" />
<glyph horiz-adv-x="322" />
<glyph horiz-adv-x="414" d="M152 0l-40 160q-4 10 -17 10h-3h-20v50h40q38 0 50 -30l40 -140q62 0 96 52.5t34 122.5q0 80 -45.5 122.5t-104.5 42.5q-63 0 -108 -45q-20 -20 -32 -45l-20 50q11 26 31 45q47 45 129 45q41 0 80 -14q70 20 70 64h60q0 -36 -25 -58.5t-58 -31.5q83 -63 83 -175 q0 -97 -51 -161t-139 -64h-50z" />
<glyph horiz-adv-x="689" d="M332 280q0 61 -39.5 85.5t-95.5 24.5q-48 0 -86 -30q-18 -15 -29 -30l60 -50q-5 -6 -10 -18q-10 -26 -10 -62v-130q0 -19 10 -20h30v-50h-40q-31 0 -45.5 16.5t-14.5 53.5v130q0 29 10 59q5 14 10 21q-4 4 -14.5 12.5t-15.5 12.5q-30 24 -30 25q17 31 41 55q57 55 134 55 t136 -35.5t59 -104.5v-157q0 -103 77 -103h42q43 0 62 31.5t19 71.5v287h60v-283q0 -64 -31.5 -109.5t-95.5 -45.5h-80q-113 0 -113 155v133z" />
<glyph d="M-208 655q38 0 62 15q10 6 18 15v-50q-6 -5 -18 -10q-26 -10 -62 -10h-50q-50 0 -50 -40q0 -30 20 -30t27 15q4 5 4 15h19q2 -9 6 -15q8 -15 24 -15q14 0 22 10t8 20h50q0 -30 -20 -50t-50 -20q-18 0 -36 10q-10 6 -14 10q-4 -6 -10 -10q-16 -10 -40 -10 q-21 0 -40.5 16.5t-19.5 53.5q0 32 17.5 51.5t35.5 24t37 4.5h60z" />
<glyph d="M20 710l-20 -50h-98q-22 0 -36 12t-14 28q0 20 -18 20h-32v50h70q15 0 27.5 -12.5t12.5 -27.5q0 -8 6 -14t14 -6h88z" />
<glyph d="M-133 750q1 5 6 10q10 10 29 10q28 0 44 -15t16 -35q0 -5 1.5 -7.5t3 -2.5h6.5h47l-20 -50h-41q-47 0 -47 40q0 30 -20 30q-15 0 -15 -30h-20q0 30 -15 30q-8 0 -14 -9t-6 -21q0 -17 10 -31q6 -6 10 -9h-60q-4 3 -10 9q-10 14 -10 31q0 30 20 50t50 20q19 0 29 -10 q5 -5 6 -10z" />
<glyph horiz-adv-x="709" d="M392 -148q0 -23 -20 -43q-6 -7 -20 -17h-20v488q0 61 -39.5 85.5t-95.5 24.5q-48 0 -86 -30q-18 -15 -29 -30l60 -50q-5 -6 -10 -18q-10 -26 -10 -62v-130q0 -8 2 -12.5t7 -6t8.5 -2t11.5 0t11 0.5v-50h-40q-31 0 -45.5 16.5t-14.5 53.5v130q0 29 10 59q5 14 10 21 q-4 4 -14.5 12.5t-15.5 12.5q-30 24 -30 25q17 31 41 55q57 55 134 55q52 0 99 -17.5t74 -52.5q12 25 45 47.5t87 22.5q66 0 118 -41.5t52 -118.5v-428q0 -23 -20 -43q-6 -7 -20 -17h-20v478q0 59 -34.5 89.5t-85.5 30.5q-28 0 -48.5 -9.5t-30 -21t-15 -26.5t-6 -21.5 t-0.5 -11.5v-448z" />
<glyph horiz-adv-x="709" d="M122 70q0 -37 -14.5 -53.5t-45.5 -16.5h-40v50h30q4 1 6.5 5t3.5 12t1 15t-0.5 17t-0.5 14v87q0 29 10 59q5 14 10 21q-4 4 -14.5 12.5t-15.5 12.5q-30 24 -30 25q17 31 41 55q57 55 134 55q52 0 99 -17.5t74 -52.5q12 25 45 47.5t87 22.5q66 0 118 -41.5t52 -118.5v-428 q0 -23 -20 -43q-6 -7 -20 -17h-20v478q0 59 -34.5 89.5t-85.5 30.5q-85 0 -101 -70q-7 -29 1 -70v-398q0 -23 -20 -43q-6 -7 -20 -17h-20v488q0 61 -39.5 85.5t-95.5 24.5q-48 0 -86 -30q-18 -15 -29 -30l60 -50q-5 -6 -10 -18q-10 -26 -10 -62v-130z" />
</font>
</defs>
</svg>
